Ektoplazm - Psytrance Netlabel and Free Music Portal
Ektoplazm t-shirts now available!
Search:
     Search  
[



DJ Nivoc – Infinity

Mix | Classic, Goa | July 14, 2010 | Posted by Basilisk

DJ Nivoc – Infinity
01 :: DJ Cosmix & Etnica - Kumba Mela [Matsuri]
02 :: Section X - Xperience [X.DR]
03 :: Semsis - Semsis [Koyote]
04 :: Nervasystem - Terraform [Psychic Deli]
05 :: Prana - Voyager III [Dragonfly]
06 :: Disco Volante - El Metro [Transient]
07 :: Underhead - Skuff 1 [Koyote]
08 :: Total Eclipse - Waiting For a New Life [T.I.P.]
09 :: Transwave - Cycles of Life [Symbiosis]
10 :: The Light - Dusk [A.A.A.]

Here is a blast from the past! Ten years ago, at the first rave I ever went to, I heard DJ Nivoc showcasing the early sound of Goa. In honour of the occasion, I have dusted off one of his old mixes from 1996 to give you a taste of the sound that first stoked my passion for psychedelic trance!

Infinity features very early releases from many of the classic labels, including Matsuri, Dragonfly, Psychic Deli, and Symbiosis. The early part of the mix is really quite sublime, with a focus on deeper analog soundscapes courtesy of Semsis, Nervasystem, Prana, and others. The energy levels begin to rise with Underhead’s overlooked classic Skuff 1, after which the listener is treated to a set of all-time classics from French artists Total Eclipse and Transwave. Enjoy the vintage old school flavour!

MP3 Download · Download count: 16,689.

Mixed & arranged by: Nivoc
Size: 131Mb
Format: 256k MP3
Length: 70 minutes
Recorded: 1996

1 Star2 Stars3 Stars4 Stars5 Stars Rated 96.30% with 81 votes

Related Downloads

Blissful Moments

Blissful Moments

DJ Basilisk – Blacklight Metropolis

DJ Basilisk – Blacklight Metropolis

OOOD – aLIVE

OOOD – aLIVE


18 Comments

  • Paul says:

    This album changed my life! it opened the door to trance for me. but I lost it. how can I get it???

  • ty656789 says:

    Kick ass!!! Thanks for the link man. Ive been trying to find stuff from Nivoc for ages. Know where I can find anything else? I have an old tape.
    Mr. Nivoc Goa trance volume 2. I lost volume 1. Volume 1 was the best. I wish I could find it again. I had another called Psychodelic trance years
    ago. bought them all in downtown toronto.

  • Nataraja says:

    wow…all i can say is this inspires me so much…theres something that lacks in all post 2k music and culture.

  • Ice Pack says:

    Basilisk, you just made my day..Thank u soooo much!!!!!!!!!!!!!

  • TantraMantra says:

    GOD BLESS THE GOA TRANCE…

  • unsane says:

    Paul, the link is right there up top “MP3 Download”.

  • Altered-Mind says:

    Simply divine goa mix this is _O_

    this very mix is the definition of TRUE trance :)

    Track 9: Transwave – Cycles Of Life, has one of the most powerful breakdown i have ever heard…

    thanks very much for this set Basilisk ;> Ektoplazm rules 4 Life \o/

  • Alexis says:

    I am also looking for Mr. Nivoc Goa Trance Vol 1 from 1995… does anyone have any ideas on where I can find it???? That was a freaking kick ass tape and I would give anything to get another copy!

  • nico says:

    WHere i can find this album?

  • wanderingrishi says:

    The windows can never be shut . OM NAMOH SHIVAI .

  • Jeremy Fonseca says:

    DO you have the Wav version for this too.. I will worship you! Thanks :)

  • geltab geltab! says:

    It’s an awesome mix so just upon a first listen I thought “why not split it with a cue so I can listen to any of those tracks easily?”. So I made a cuefile I want to share with you folks, of course it’s far from ace but guess it’s better than nothing :) http://www.sendspace.com/file/od0hus

  • merlin says:

    Why can’t we access this any more please?

    Seems like anything really good, over 90% rating is hard for us to listen to.

    Please tell me what is going on with our music?

  • Chantal says:

    This album brings back so many good memories. Love it

  • Cascade says:

    Your awesome! Thanks for sharing. First psytrance CD I ever owned, tripped out so many times to this when I was a younger! Time to do it again!!!! The last track THE LIGHT is the best sunrise track ever

  • kai says:

    Please re-upload <3

  • glauco says:

    de lo mejor del trance¡¡¡¡¡¡

  • Superfluid says:

    CUE FILE:

    REM GENRE Goa Trance
    REM DATE 1996
    PERFORMER “DJ Nivoc”
    TITLE “Infinity”
    FILE “01-DJ Nivoc-Infinity” WAVE
    TRACK 01 AUDIO
    TITLE “Kumba Mela”
    PERFORMER “DJ Cosmix & Etnica”
    INDEX 01 00:00:00
    TRACK 02 AUDIO
    TITLE “Xperience”
    PERFORMER “Section X”
    INDEX 01 07:15:00
    TRACK 03 AUDIO
    TITLE “Semsis”
    PERFORMER “Semsis”
    INDEX 01 14:17:00
    TRACK 04 AUDIO
    TITLE “Terraform”
    PERFORMER “Nervasystem”
    INDEX 01 20:56:00
    TRACK 05 AUDIO
    TITLE “Voyager III”
    PERFORMER “Prana”
    INDEX 01 27:49:00
    TRACK 06 AUDIO
    TITLE “El Metro”
    PERFORMER “Disco Volante”
    INDEX 01 34:15:00
    TRACK 07 AUDIO
    TITLE “Skuff 1”
    PERFORMER “Underhead”
    INDEX 01 41:29:00
    TRACK 08 AUDIO
    TITLE “Waiting for a New Life”
    PERFORMER “Total Eclipse”
    INDEX 01 46:15:00
    TRACK 09 AUDIO
    TITLE “Cycles of Life”
    PERFORMER “Transwave”
    INDEX 01 55:01:00
    TRACK 10 AUDIO
    TITLE “Dusk (Between The Beach And The City)”
    PERFORMER “The Light”
    INDEX 01 60:45:00


Write a Comment