Ektoplazm - Psytrance Netlabel and Free Music Portal
Search:
     Search  
[



DJ Soulstone – Photonica

Mix |  | July 14, 2012 | Released by Neogoa | Posted by Basilisk

DJ Soulstone – Photonica
01 - Antares - Xibalba
02 - Siam - In Void
03 - Aerosis - Zen Hyperbabble
04 - Deimos - Doomsday Funk
05 - Screw Loose - Mentally Unfit
06 - Psychowave - Tranceship To The Sun
07 - Daimon - Edge Of Darkness
08 - Javi - The Forest Master
09 - Sky Technology - Indian Spiciness
10 - Sky Technology & Nova Fractal - Dark Energy (Versus Mix)
11 - PharaOm - Cellar Door

Photonica is brand new DJ mix recorded by German DJ Soulstone to celebrate the second birthday of Neogoa. It features some of the best Goa trance tracks released on the Neogoa netlabel during the last two years. Mixed and recorded by DJ Soulstone, artwork by Dmitry Shahov, with additional editing by Richpa at Neogoa Design. Mastering by Deimos at Deimos Soundlabs except track #6, which was mastered by Tim Schuldt at 4CN Studios.

MP3 Download | FLAC Download | WAV Download · Download count: 8,275.

Released under a Creative Commons licence for noncommercial usage.

1 Star2 Stars3 Stars4 Stars5 Stars Rated 91.21% with 66 votes

Related Downloads

Arronax – Crossing The Rubicon

Arronax – Crossing The Rubicon

BlackStarrFinale – AURYN

BlackStarrFinale – AURYN

GoaTree – The Force

GoaTree – The Force


8 Comments

  • Goasmacked says:

    So it’s Neogoa’s birthday and they’re giving out the presents?! It seems wrong, but feels oh so righteous! Considering all that Neogoa (I’m talking to you, Richpa!) has done for goa and the CC scene for the past two years I listened with high expectations, and they were more than met. Highly recommended if you want more than an hour of relentess energy and deep melodies. Happy Birthday Neogoa!

  • RiY Az says:

    its gonna be a killer Goa mix… no doubt .

    and birthday vibes to Neogoa!!

    Cheers!!

  • DJ Soulstone says:

    It’s a great honor to have been chosen for mixing this set! :) Happy birthday, Neogoa!
    I took the liberty of creating a cue-file for those who want to burn it. It’s written for the wave-file.

    TITLE “DJ Soulstone – Photonica”
    FILE “DJ Soulstone – Photonica.wav” WAVE
    TRACK 01 AUDIO
    TITLE “Xibalba ”
    PERFORMER “Antares”
    INDEX 01 00:00:00
    TRACK 02 AUDIO
    TITLE “In Void ”
    PERFORMER “Siam”
    INDEX 01 08:58:62
    TRACK 03 AUDIO
    TITLE “Zen Hyperbabble”
    PERFORMER “Aerosis”
    INDEX 01 17:15:52
    TRACK 04 AUDIO
    TITLE “Doomsday Funk”
    PERFORMER “Deimos”
    INDEX 01 21:57:58
    TRACK 05 AUDIO
    TITLE “Mentally Unfit”
    PERFORMER “Screw Loose”
    INDEX 01 26:52:71
    TRACK 06 AUDIO
    TITLE “Tranceship To The Sun”
    PERFORMER “Psychowave”
    INDEX 01 32:00:51
    TRACK 07 AUDIO
    TITLE “Edge Of Darkness”
    PERFORMER “Daimon”
    INDEX 01 38:00:40
    TRACK 08 AUDIO
    TITLE “The Forest Master”
    PERFORMER “Javi”
    INDEX 01 44:13:54
    TRACK 09 AUDIO
    TITLE “Indian Spiciness”
    PERFORMER “Sky Technology”
    INDEX 01 49:55:31
    TRACK 10 AUDIO
    TITLE “Dark Energy (Versus Mix)”
    PERFORMER “Sky Technology & Nova Fractal”
    INDEX 01 56:49:49
    TRACK 11 AUDIO
    TITLE “Cellar Door”
    PERFORMER “PharaOm”
    INDEX 01 63:30:68

  • Richpa says:

    @Goasmacked: Thank you sir for your kind words, the best gift for me and for Neogoa is positive feedback and I’m glad that you like this one too. Unlike the 2011. we don’t release that much in 2012. but I think that we kept high level of quality on our releases. Kudos to Stevo and Soulstone for their efforts aswell.

  • Seyfert says:

    many thx..lots of creative energy to you!!:))

  • D.I.Abigor says:

    A tracklist in ID-tags would be nice.

  • SHIVA says:

    great stuff – cant get enough of it! keep on doing things like this please!

  • I think, Goa trance is the best style of electronic music!
    So I postid this relis in my own group in Kontact http://vk.com/gandharva_loca
    I improvise on bass guitar with effects on goa-trance. This is my format


Write a Comment